Свободный торрент трекер рутор орг зеркало.

aRutor.org :: Свободный торрент трекер:: руторг зеркалоКак многие знают, Rutor.org заблокировали для пользователей России, и многие зеркала рутора постигла та же печальная учесть. Многие пользователи не могут зайти на руторг и им приходится искать нужные им фильм, игры на других торрент трекерах. Конечно можно поставить дополнение для браузера, но не каждый пользователь может это сделать, или попросту не хочет тратить на это время. По этом мы не остались в стороне, и создали свое независимое зеркало руторг. Наше зеркало работает намного стабильней других, таких например как new rutor (нев руторг), xrutor и тд. Мы гарантируем появление новинок фильмов, игр и сериалов своевременно и быстрее, чем на других торрентах. С нашим зеркалом рутора больше не страшна никакая блокировка. Скачивайте через торрент фильмы, сериалы, музыку бесплатно. Нет нужды скачивать какие-либо дополнения или браузеры для обхода блокировки. aRutor.org самое удобно рутор зеркало.

Скачать торрент Чудеса с небес / Miracles from Heaven (2016) BDRemux 1080p от ExKinoRay | iTunes

M Скачать Miracles.from.Heaven.2016.BDREMUX.1080p.ExKinoR.torrent
Добавить arutor.org в поисковую строку



Информация о фильме
Название: Чудеса с небес
Оригинальное название: Miracles from Heaven
Год выхода: 2016
Жанр: Драма
Режиссер: Патрисия Ригген
В ролях: Дженнифер Гарнер, Кайли Роджерс, Мартин Хендерсон, Брайтон Шарбино, Кортни Фанслер, Куин Латифа, Брайс Зенткович, Эухенио Дербес, Келли Коллинз, Джон Кэрролл Линч

О фильме:
Удивительная история, в которую невозможно поверить, не увидев собственными глазами. Когда кажется все потеряно, и впереди только боль и отчаяние, небеса дарят надежду тем, кто верит.


Официальный сайт

Страна: США
Студия: Affirm Films, TriStar Pictures
Продолжительность: 01:49:15
Перевод: Профессиональный многоголосый (закадровый) | iTunes

Файл
Кодек: MPEG-4
Качество: BDRemux 1080p
Видео: 1920x1080, 24.1 Mbit/s, 23.976 fps
Звук:
Аудио #01: 48 kHz, AC3, 5.1, 384 Kbps | Профессиональный многоголосый (закадровый), iTunes |
Аудио #02: 48 kHz, DTS-HD MA, 5.1, 2048 kbps | Оригинал |
Субтитры: Русские, английские

Релиз от: Автор релиза:



hide=MI]General
Unique ID : 236310603427941119331275550207093860459 (0xB1C7C448892BEFC1B75367688349686B)
Complete name : F:VideoMiracles.from.Heaven.2016.BDREMUX.1080p.ExKinoRay.mkv
Format : Matroska
Format version : Version 4 / Version 2
File size : 20.1 GiB
Duration : 1h 49mn
Overall bit rate mode : Variable
Overall bit rate : 26.4 Mbps
Movie name : Miracles.from.Heaven.2016.BDREMUX.1080p.ExKinoRay
Encoded date : UTC 2016-07-05 12:40:40
Writing application : mkvmerge v8.3.0 ('Over the Horizon') 64bit
Writing library : libebml v1.3.1 + libmatroska v1.4.2

Video
ID : 1
Format : AVC
Format/Info : Advanced Video Codec
Format profile : High@L4.1
Format settings, CABAC : Yes
Format settings, ReFrames : 2 frames
Format settings, GOP : M=1, N=10
Codec ID : V_MPEG4/ISO/AVC
Duration : 1h 48mn
Bit rate mode : Variable
Bit rate : 24.1 Mbps
Width : 1 920 pixels
Height : 1 080 pixels
Display aspect ratio : 16:9
Frame rate mode : Variable
Frame rate : 23.201 fps
Original frame rate : 23.976 (24000/1001) fps
Color space : YUV
Chroma subsampling : 4:2:0
Bit depth : 8 bits
Scan type : Progressive
Bits/(Pixel*Frame) : 0.500
Stream size : 18.3 GiB (91%)
Language : English
Default : Yes
Forced : No

Audio #1
ID : 2
Format : AC-3
Format/Info : Audio Coding 3
Mode extension : CM (complete main)
Format settings, Endianness : Big
Codec ID : A_AC3
Duration : 1h 49mn
Bit rate mode : Constant
Bit rate : 384 Kbps
Channel(s) : 6 channels
Channel positions : Front: L C R, Side: L R, LFE
Sampling rate : 48.0 KHz
Frame rate : 31.250 fps (1536 spf)
Compression mode : Lossy
Delay relative to video : -8ms
Stream size : 299 MiB (1%)
Title : MVO [iTunes]
Language : Russian
Default : Yes
Forced : No

Audio #2
ID : 3
Format : DTS
Format/Info : Digital Theater Systems
Format profile : MA / Core
Mode : 16
Format settings, Endianness : Big
Codec ID : A_DTS
Duration : 1h 48mn
Bit rate mode : Variable / Constant
Bit rate : 2 048 Kbps / 1 509 Kbps
Channel(s) : 6 channels
Channel positions : Front: L C R, Side: L R, LFE
Sampling rate : 48.0 KHz
Frame rate : 93.750 fps (512 spf)
Bit depth : 16 bits
Compression mode : Lossless / Lossy
Stream size : 1.54 GiB (8%)
Title : Original
Language : English
Default : No
Forced : No

Text #1
ID : 4
Format : UTF-8
Codec ID : S_TEXT/UTF8
Codec ID/Info : UTF-8 Plain Text
Duration : 1h 43mn
Bit rate : 111 bps
Count of elements : 1725
Stream size : 85.1 KiB (0%)
Title : Full
Language : Russian
Default : No
Forced : No

Text #2
ID : 5
Format : UTF-8
Codec ID : S_TEXT/UTF8
Codec ID/Info : UTF-8 Plain Text
Duration : 1h 43mn
Bit rate : 71 bps
Count of elements : 1775
Stream size : 54.1 KiB (0%)
Title : Full
Language : English
Default : No
Forced : No

Text #3
ID : 6
Format : UTF-8
Codec ID : S_TEXT/UTF8
Codec ID/Info : UTF-8 Plain Text
Duration : 1h 43mn
Bit rate : 75 bps
Count of elements : 1865
Stream size : 57.5 KiB (0%)
Title : SDH
Language : English
Default : No
Forced : No

Menu
00:00:00.000 : en:Chapter 1
00:09:46.336 : en:Chapter 2
00:16:54.305 : en:Chapter 3
00:25:52.092 : en:Chapter 4
00:32:45.213 : en:Chapter 5
00:37:26.202 : en:Chapter 6
00:45:49.538 : en:Chapter 7
00:53:31.458 : en:Chapter 8
00:58:18.245 : en:Chapter 9
01:07:21.162 : en:Chapter 10
01:13:46.714 : en:Chapter 11
01:19:51.036 : en:Chapter 12
01:26:40.237 : en:Chapter 13
01:33:12.128 : en:Chapter 14
01:40:24.060 : en:Chapter 15
01:46:18.872 : en:Chapter 16[/hide]
Скриншоты
Залилarutor.org Super USER
КатегорияЗарубежные фильмы
Раздают8
Качают1
Добавлен05-Июл-2016 15:55 (5 месяцев 4 дня назад)
Размер20.09 GB (21572783938 Bytes)
Добавить в закладки
Файлы (1)


Написать комментарий


Файлы для обмена предоставлены пользователями сайта. Администрация не несёт ответственности за их содержание. На сервере хранятся только торрент-файлы. Это значит, что мы не храним никаких нелегальных материалов, а так же материалов охраняемых авторским правом.